常青树
一步一步教您如何刻录DTS5.1声道环绕CD
位置: 首页 > 网络应用[ 发布时间: 2015-12-13  作者: 常青树  阅读: 3707 ]

    刻录DTS光盘跟刻录APE无损光盘差别不大,首先看看网上下载的常见DTS文件格式:

DTS CD的几种常见格式:
1. APE + CUE 文件、一个APE或多个APE
2. WAV + CUE 文件、一个WAV或多个WAV
3. IMG + CCD + SUB 文件
4. NRG 文件
5.MDS + MDF 文件
6.BIN + CUE + SUB文件
7.ISO + CUE 文件
8.DTS +CUE文件、一个或多个DTS文件

对于情况1、2,跟刻录正常的CD光盘一样,APE后缀的,用foobar2000转为WAV格式,再修改CUE文件,用NERO完成刻录,WAV后缀的更简单,直接双击CUE文件即可完成刻录。

对于情况4、7,直接用NERO的镜像刻录功能即可,如图,先打开NERO,选择“翻录和刻录”,再点选下面的“复制光盘”

再选择“光盘映像或保存的项目”,载入NRG或ISO文件即可

    对于情况3、5、6,则需要使用虚拟光驱,推荐使用精灵虚拟光驱(Daemon Tools) 4.30.4 官方中文版,下载地址为:http://www.skycn.com/soft/2345.html

装好后,装载入镜像文件

    第3种情况,装入CCD文件
    第5种情况,装入MDS文件
    第6钟情况,装入CUE文件

装载后,使用NERO的光盘复制功能

注意:源盘符要选择虚拟光驱的盘符,选好后直接点“复制”即可

    接着介绍最后一种,DTS +CUE文件、一个或多个DTS文件,这种的刻录最为麻烦,不过熟悉了也很简单,一步一步来:

    A、下载后有两个文件,分别为dts文件、cue文件

 

    用记事本打开cue文件,找到“FILE”字头这行,将最后一个词“WAVE”改成“BINARY”,另保存为一个在同目录的cue文件。接着用Daemon Tools加载修改后的cue,然后重复上面介绍的,用NERO的“复制光盘”搞定。 见图:

修改前:

修改后:

 

    B、如果下载的是分轨过的零碎dts文件,那么就要麻烦一些了,也就是按照cue规范来制作一个cue。首先新建一个文本文档,打开后写入一下内容:

    注意:后面的“ <------”为注释,不要写到cue里

PERFORMER "艺术家" <------可以不写这行
TITLE "专辑名" <------可以不写这行
FILE "第一个.dts" BINARY <------文件名记得改为你下载的DTS文件名
TRACK 01 AUDIO <------第1首标号,就是01
INDEX 01 00:00:00 <------完全照抄
FILE "第二个.dts" BINARY <------文件名改下
TRACK 02 AUDIO <------第2首标号,就是02
INDEX 01 00:00:00 <------完全照抄
………… <------依次向下写出第n首的信息内容
FILE "第n个.dts" BINARY <------文件名改下
TRACK n AUDIO <------第n首标号,记得修改,n为两位数
INDEX 01 00:00:00 <------完全照抄

曲目多就继续往写,格式雷同,写好后保存,记得跟DTS歌曲保存在一个目录下,将.TXT后缀改为.CUE后缀,接着用Daemon Tools加载修改后的cue,然后重复上面介绍的,用NERO的“复制光盘”搞定。

    C、最后一种,整轨DTS文件,无CUE文件。这种格式的我还没有下载过,网上会发布这样的文件大多是演唱会之类的原声碟,不需要分轨。刻录的话,可以先新建CUE文件,写入内容:

FILE "文件名.dts" BINARY                 <------文件名记得改为你下载的DTS文件名
TRACK 01 AUDIO
INDEX 01 00:00:00

    用虚拟光驱载入CUE文件,然后用NERO的“复制光盘”功能复制,如果需要分轨刻录,载入虚拟光驱后用IsoBuster分轨,本人没有试过,但相信可行。

CUE文件编写注意事项:
1、当音频文件后辍名为ape、flac、wav时,FILE行后一定要跟WAVE, 其中WAVE代表声音文件;当音频文件后辍名为dts时,后一定要跟BINARY。这是错误多发的行。
2、音频文件用英文命名(文件名最好不用汉字),并把所有要刻录的文件放在英文文件夹内,里面的.cue文件也要用英文命名,这样就万无一失,肯定不会提示路径出错了。

前一篇: [常青树学图] 音画图文《春色》
下一篇: ■“他们,因职业而特殊”系列报道之(十)

   发表评论:

       

评论列表 [2条]
#2 | 西风无影 于 2015-1-2 21:31 发布:
你好,老师。我用你的方法刻录后缀为WAV的DTS歌曲,用带有DTS解码的DVD播放时沙沙声!
#1 | 西风无影 于 2015-1-2 20:31 发布:
你好,老师。我用你的方法刻录后缀为WAV的DTS歌曲,用带有DTS解码的DVD播放时沙沙声!
回到顶部↑

黑马PHP文本库整站系统1.5版本
粤ICP备10089226号-1